Лицензия

MVO

1

1 сезон

Лицензия

Лицензия

13

MVO

1 сезон

Deluxe Edition

pack

Рекомендуем

30

Repack

ВАЖНО

ВАЖНО

Ghostwire

RePack

jed

RePack

fifa19

RePack

RDR2

RePack

NEED FOR SPEED™ PAYBACK

RePack

Кинопоиск HD

 Острые козырьки 6 сезон

6 сезон

FAR CRY 6

RePack

Лицензия

MVO

1

1 сезон

1 сезон

Лицензия

  

Засланец из космоса / Местный пришелец / Resident Alien / Сезон: 2 / Серии: 1-14 из 16 (Роберт Данкан МакНил, Джей Чандрашекхар, Шеннон Коли) [2022, фантастика, драма, комедия, детектив, WEBRip] MVO [Кравец-Рекордз]

Засланец из космоса через торрент k3vl.vidak.icu

Размер: 7.42 GB | Добавлен: 4 д. назад | Торрент скачан:0 раз
Смотреть онлайн Засланец из космоса | Скачать   

27-01-2022 15:57 Засланец из космоса Скачать торрент  

Засланец из космоса | Местный пришелец | Resident Alien
«The sci-fi murder mystery doctor dramedy Earth needs now»
Год выпуска: 2022
Страна: США
Выпущено: Universal Cable Productions, Dark Horse Entertainment, Amblin Television
Жанр: фантастика, драма, комедия, детектив
Премьера (мир): 27 января 2021
Продолжительность: ~ 00:46:00 серия
Перевод: Профессиональный (многоголосый) | Кравец-Рекордз
Субтитры: отсутствуют

Режиссер: Роберт Данкан МакНил, Джей Чандрашекхар, Шеннон Коли

rating

В ролях: Алан Тьюдик, Сара Томко, Кори Рейнольдс, Элис Веттерлунд, Леви Филер, Джуда Прен, Элизабет Бауэн, Бен Коттон, Мередит Гарретсон, Грэйслин Авад Ринке, Кэйлайла Рэйн, Дебора Финкел, Дженна Ламия, Гэри Фармер, Диана Пан, Манделл Мофан, Алекс Барима, Элвин Сандерс, Элви Йост, Линда Хэмилтон, Натан Филлион, Терри О`Куинн, Джорджио Цукалос

Описание: После того, как его корабль потерпел крушение на Земле, инопланетянин Гарри осел в провинциальном городе штата Колорадо под видом местного врача. Постепенно он приспосабливается к жизни на новой планете, но чем дольше он находится среди людей, тем больше его терзают сомнения по поводу миссии, с которой он был сюда послан, — уничтожить всё человечество.

Качество: WEBRip
Формат: AVI

Видео: XviD, 720x400 (16:9), 23.976 fps, ~1500 kbps
Аудио Rus: MP3, 48 kHz, 2 ch, 192 kbps
скриншот  скриншот  скриншот  скриншот  

Полное имя : Resident.Alien.S02.WEBRip.Rus.Kravec\Resident.Alien.S02E01.WEBRip.Rus.Kravec.JuSSiKa.avi
Формат : AVI
Формат/Информация : Audio Video Interleave
Размер файла : 568 Мбайт
Продолжительность : 46 м. 9 с.
Общий поток : 1721 Кбит/сек
Программа кодирования : VirtualDubMod 1.5.10.3 (build 2550/release)
Библиотека кодирования : VirtualDubMod build 2550/release

Видео
Идентификатор : 0
Формат : MPEG-4 Visual
Профиль формата : Advanced [email protected]
Настройки формата : BVOP1
Параметр BVOP формата : 1
Параметр QPel формата : Нет
Параметр GMC формата : Без точки перехода
Параметр матрицы формата : Default (H.263)
Идентификатор кодека : XVID
Идентификатор кодека/Подсказка : XviD
Продолжительность : 46 м. 9 с.
Битрейт : 1520 Кбит/сек
Ширина : 720 пикселей
Высота : 400 пикселей
Соотношение сторон : 16:9
Частота кадров : 23,976 (24000/1001) кадра/сек
Цветовое пространство : YUV
Субдискретизация насыщенности : 4:2:0
Битовая глубина : 8 бит
Тип развёртки : Прогрессивная
Метод сжатия : С потерями
Бит/(Пиксели*Кадры) : 0.220
Размер потока : 502 Мбайт (88%)
Библиотека кодирования : XviD 1.2.1 (UTC 2008-12-04)

Аудио
Идентификатор : 1
Формат : MPEG Audio
Версия формата : Version 1
Профиль формата : Layer 3
Идентификатор кодека : 55
Идентификатор кодека/Подсказка : MP3
Продолжительность : 46 м. 9 с.
Вид битрейта : Постоянный
Битрейт : 192 Кбит/сек
Каналы : 2 канала
Частота : 48,0 КГц
Метод сжатия : С потерями
Размер потока : 63,4 Мбайт (11%)
Выравнивание : Соединение по промежуткам
Продолжительность промежутка : 42 мс. (1,00 видеокадр)
Время предзагрузки промежутка : 504 мс.

Внимание! Раздача ведётся путём добавления новых серий; при каждом добавлении создаётся новый торрент.
Чтобы начать докачку новой серии, пользователям необходимо сделать следующее:
1. Остановить скачивание;
2. Удалить старый торрент у себя из клиента (старые серии удалять не надо);
3. Скачать новый торрент и запустить его у себя в клиенте вместо старого, при этом указать клиенту путь в старую папку куда и должно происходить скачивание новых серий. Ваш клиент при этом должен произвести хеширование (проверку) старой папки и будет докачивать только те серии, которых у вас ещё нет. Старые серии при этом не удаляются, а продолжают раздаваться! Eсли вы уже удалили старые серии, то предотвратить повторную закачку старых серий можно, отжав галочку в соответствующих местах при запуске нового торрента.




Скачать Засланец из космоса через торрент https://i116.fastpic.org/big/2022/0127/3a/c16c3f5917888ec31cce3cd711f8763a.jpg Скачать, смотреть онлайн Засланец из космоса бесплантно в хорошем качестве Описание: После того, как его корабль потерпел крушение на Земле, инопланетянин Гарри осел в провинциальном городе штата Колорадо под видом ... 9.2 10 11
Торрент: Зарегистрирован [2022-09-22 23:20] · скачан: 0 раз
Статус: √ проверено
Размер: 7.42 GB
Как cкачать? Как скачать Засланец из космоса через торрент | UTorrent

% Раздел Тема Автор DL S | L
Зарубежные сериалы [ 30.95 GB ] Засланец из космоса / Местный пришелец / Resident Alien / Сезон: 2 / Серии: 1-14 из 16 | MVO | 1080p bober100 Скачать
2 | 4
Зарубежные сериалы [ 43.99 GB ] Засланец из космоса / Местный пришелец / Resident Alien / Сезон: 2 / Серии: 1-14 из 16 | MVO | 1080p bober100 Скачать
3 | 1
Зарубежные сериалы [ 7.94 GB ] Засланец из космоса / Местный пришелец / Resident Alien / Сезон: 2 / Серии: 1-15 из 16 | HDRezka Studio | DLRip bober100 Скачать
6 | 4
Зарубежные сериалы [ 27.03 GB ] Засланец из космоса / Местный пришелец / Resident Alien / Сезон: 2 / Серии: 1-14 из 16 | MVO+ DVO | 720p bober100 Скачать
3 | 0

28-11-2019 20:33  

Отключить вcю реклaмy на сайте

    Дорогой пользователь! Огромная просьба, поблагодарите релизера, оцените раздачу и оставьте свои комментарий, если Вы скачали Засланец из космоса через торрент бесплатно!!
    Комментировать посты могут только пользователи прошедшие не сложную регистрацию
    Показать сообщения:    


    Засланец из космоса через торрент
    Скачать бесплатно Засланец из космоса
    Засланец из космоса скачать торрент
    Засланец из космоса смотреть онлайн
    Cкачать фильм Засланец из космоса бесплатно
    Засланец из космоса скачать торрент в хорошем качестве
    Засланец из космоса смотреть онлайн бесплатно в хорошем качестве
    Вы не можете начинать темы
    Вы не можете отвечать на сообщения
    Вы не можете редактировать свои сообщения
    Вы не можете удалять свои сообщения
    Вы не можете голосовать в опросах
    Вы не можете прикреплять файлы к сообщениям
    Вы можете скачивать файлы