Лицензия

MVO

1

1 сезон

Лицензия

Лицензия

13

MVO

1 сезон

Deluxe Edition

pack

Рекомендуем

30

Repack

ВАЖНО

ВАЖНО

Ghostwire

RePack

jed

RePack

fifa19

RePack

RDR2

RePack

NEED FOR SPEED™ PAYBACK

RePack

Кинопоиск HD

 Острые козырьки 6 сезон

6 сезон

FAR CRY 6

RePack

Лицензия

MVO

1

1 сезон

1 сезон

Лицензия

  

Рассвет застилает глаза / Hinter den Augen die Dammerung / Dawn Breaks Behind the Eyes (Кевин Копацка) [2021, ужасы, WEB-DLRip-AVC] DVO [Pazl Voice] от ExKinoRay

Рассвет застилает глаза через торрент k3vl.vidak.icu

Раздают: 5 [ 4 KB/s ]
Размер: 1.33 GB | Добавлен: 20 д. назад | Торрент скачан:28 раз
Смотреть онлайн Рассвет застилает глаза | Скачать   

07-09-2022 17:55 Рассвет застилает глаза Скачать торрент  


Рассвет застилает глаза / Hinter den Augen die Dammerung / Dawn Breaks Behind the Eyes
Информация о фильме:
Название: Рассвет застилает глаза
Оригинальное название: Hinter den Augen die Dammerung / Dawn Breaks Behind the Eyes
Год выхода: 2021
Жанр: ужасы
Режиссер: Кевин Копацка
В ролях: Анна Платен, Джефф Вильбуш, Фредерик фон Люттишау, Луиза Тараз, Роберт Никиш, Елена Гомес Альварез, Билл Бекер, Кристофер Рамм, Макс Крамер

Описание: Получив в наследство запущенный замок, разочарованная в жизни женщина и ее вспыльчивый муж решают провести в нём ночь, в то время как время и реальность меняются вокруг них.



Страна: Германия
Студия: Crossbones GmbH, Sylenteye Films
Продолжительность: 01:15:57
Перевод: Любительский (двухголосый, закадровый) - Pazl Voice



Информация о файле:
Кодек: AVC
Формат: MKV
Качество: WEB-DLRip-AVC
Видео: MPEG-4 AVC, 1024x428, 23.976 fps, 2050 kb/s
Аудио RU: AC3, 2 ch, 48 kHz, 224 kbps
Аудио GER: E-AC3, 2 ch, 48 kHz, 224 kbps
Субтитры: Английские



x264 info: frame I:695 Avg QP:14.70 size: 63726
x264 info: frame P:21993 Avg QP:17.57 size: 23024
x264 info: frame B:86584 Avg QP:19.53 size: 7126
General
Unique ID : 239205243138561237329196347310124540322 (0xB3F5410A2CA30128723BAFC77337A1A2)
Complete name : D:uTorrentРипы wolf1245Dawn Breaks Behind the Eyes.2021.DVO.Pazl.x264.WEB-DLRip-AVC.[wolf1245.ExKinoRay].mkv
Format : Matroska
Format version : Version 4
File size : 1.33 GiB
Duration : 1 h 15 min
Overall bit rate : 2 500 kb/s
Movie name : Dawn Breaks Behind the Eyes.2021.DVO.Pazl.x264.WEB-DLRip-AVC.[wolf1245.ExKinoRay]
Encoded date : UTC 2022-09-07 17:38:24
Writing application : mkvmerge v70.0.0 ('Caught A Lite Sneeze') 64-bit
Writing library : libebml v1.4.2 + libmatroska v1.6.4
Video
ID : 1
Format : AVC
Format/Info : Advanced Video Codec
Format profile : [email protected]
Format settings : CABAC / 12 Ref Frames
Format settings, CABAC : Yes
Format settings, Reference frames : 12 frames
Codec ID : V_MPEG4/ISO/AVC
Duration : 1 h 15 min
Bit rate : 2 050 kb/s
Width : 1 024 pixels
Height : 576 pixels
Display aspect ratio : 16:9
Frame rate mode : Constant
Frame rate : 23.976 (24000/1001) FPS
Color space : YUV
Chroma subsampling : 4:2:0
Bit depth : 8 bits
Scan type : Progressive
Bits/(Pixel*Frame) : 0.145
Stream size : 1.09 GiB (82%)
Title : -=[wolf1245.ExKinoRay]=-
Writing library : x264 core 163 r3060 5db6aa6
Encoding settings : cabac=1 / ref=12 / deblock=1:-2:-2 / analyse=0x3:0x133 / me=umh / subme=9 / psy=1 / psy_rd=0.98:0.06 / mixed_ref=1 / me_range=32 / chroma_me=1 / trellis=2 / 8x8dct=1 / cqm=0 / deadzone=22,11 / fast_pskip=1 / chroma_qp_offset=-3 / threads=10 / lookahead_threads=2 / sliced_threads=0 / nr=0 / decimate=0 / interlaced=0 / bluray_compat=0 / constrained_intra=0 / bframes=12 / b_pyramid=2 / b_adapt=2 / b_bias=0 / direct=3 / weightb=1 / open_gop=0 / weightp=2 / keyint=240 / keyint_min=24 / scenecut=40 / intra_refresh=0 / rc_lookahead=60 / rc=2pass / mbtree=0 / bitrate=2050 / ratetol=1.0 / qcomp=0.75 / qpmin=0 / qpmax=69 / qpstep=4 / cplxblur=20.0 / qblur=0.5 / vbv_maxrate=50000 / vbv_bufsize=62500 / nal_hrd=none / filler=0 / ip_ratio=1.37 / pb_ratio=1.27 / aq=3:0.80
Language : English
Default : Yes
Forced : No
Color range : Limited
Color primaries : BT.709
Transfer characteristics : BT.709
Matrix coefficients : BT.709
Audio #1
ID : 2
Format : AC-3
Format/Info : Audio Coding 3
Commercial name : Dolby Digital
Codec ID : A_AC3
Duration : 1 h 15 min
Bit rate mode : Constant
Bit rate : 224 kb/s
Channel(s) : 2 channels
Channel layout : L R
Sampling rate : 48.0 kHz
Frame rate : 31.250 FPS (1536 SPF)
Compression mode : Lossy
Stream size : 122 MiB (9%)
Title : DVO | Pazl Voice | RUS
Language : Russian
Service kind : Complete Main
Default : Yes
Forced : No
Audio #2
ID : 3
Format : E-AC-3
Format/Info : Enhanced AC-3
Commercial name : Dolby Digital Plus
Codec ID : A_EAC3
Duration : 1 h 15 min
Bit rate mode : Constant
Bit rate : 224 kb/s
Channel(s) : 2 channels
Channel layout : L R
Sampling rate : 48.0 kHz
Frame rate : 31.250 FPS (1536 SPF)
Compression mode : Lossy
Stream size : 122 MiB (9%)
Title : Original | GER
Language : German
Service kind : Complete Main
Default : No
Forced : No
Text
ID : 4
Format : UTF-8
Codec ID : S_TEXT/UTF8
Codec ID/Info : UTF-8 Plain Text
Duration : 1 h 13 min
Bit rate : 34 b/s
Count of elements : 801
Stream size : 18.7 KiB (0%)
Language : English
Default : No
Forced : No
Релиз от:
Автор релиза:



Скачать Рассвет застилает глаза через торрент http://i120.fastpic.org/big/2022/0907/f1/2ea1fd7958fa43dada3885fca845a3f1.jpg Скачать, смотреть онлайн Рассвет застилает глаза бесплантно в хорошем качестве Описание: Получив в наследство запущенный замок, разочарованная в жизни женщина и ее вспыльчивый муж решают провести в нём ночь, в то ... 10 10 3
Торрент: Зарегистрирован [2022-09-07 17:55] · скачан: 28 раз
Статус: √ проверено
Размер: 1.33 GB
Как cкачать? Как скачать Рассвет застилает глаза через торрент | UTorrent

28-11-2019 20:33  

Отключить вcю реклaмy на сайте

    Дорогой пользователь! Огромная просьба, поблагодарите релизера, оцените раздачу и оставьте свои комментарий, если Вы скачали Рассвет застилает глаза через торрент бесплатно!!
    Комментировать посты могут только пользователи прошедшие не сложную регистрацию
    Показать сообщения:    


    Рассвет застилает глаза через торрент
    Скачать бесплатно Рассвет застилает глаза
    Рассвет застилает глаза скачать торрент
    Рассвет застилает глаза смотреть онлайн
    Cкачать фильм Рассвет застилает глаза бесплатно
    Рассвет застилает глаза скачать торрент в хорошем качестве
    Рассвет застилает глаза смотреть онлайн бесплатно в хорошем качестве
    Вы можете начинать темы
    Вы можете отвечать на сообщения
    Вы не можете редактировать свои сообщения
    Вы не можете удалять свои сообщения
    Вы не можете голосовать в опросах
    Вы не можете прикреплять файлы к сообщениям
    Вы можете скачивать файлы