Лицензия

MVO

1

1 сезон

Лицензия

Лицензия

13

MVO

1 сезон

Deluxe Edition

pack

Рекомендуем

30

Repack

ВАЖНО

ВАЖНО

Ghostwire

RePack

jed

RePack

fifa19

RePack

RDR2

RePack

NEED FOR SPEED™ PAYBACK

RePack

Кинопоиск HD

 Острые козырьки 6 сезон

6 сезон

FAR CRY 6

RePack

Лицензия

MVO

1

1 сезон

1 сезон

Лицензия

  

Грязь / Filth (Джон С. Бейрд) [2013, драма, комедия, криминал, BDRip - HEVC 1080p 10 bit 60 FPS, Dub, AVO]

Грязь через торрент k3vl.vidak.icu

Раздают: 4 [ 0 KB/s ]
Размер: 2.42 GB | Добавлен: 5 д. назад | Торрент скачан:31 раз
Смотреть онлайн Грязь | Скачать   

22-09-2022 10:20 Грязь Скачать торрент  

Filth
«This Little Piggy went to town!»
Информация о фильме:
Название: Грязь
Оригинальное название: Filth
Год выхода: 2013
Жанр: криминал, драма, комедия
Режиссер: Джон С. Бейрд
В ролях: Джеймс МакЭвой, Джейми Белл, Джим Бродбент, Имоджен Путс, Иэн де Кестекер, Джоанн Фроггатт, Иман Эллиотт, Ширли Хендерсон, Эдди Марсан, Мартин Компстон
Описание: Главный герой — Брюс Робертсон, детектив-сержант сыскной полиции города Эдинбурга, стремящийся получить вакантную должность детектива-инспектора. Начальник Брюса Боб Тоал поручает ему руководство расследованием убийства японского студента в подземном переходе. Кроме Брюса на должность инспектора претендуют также его коллеги по отделу сыскной полиции. Робертсон использует все возможные средства, чтобы устранить соперников, подставляя и унижая их...


Страна: Великобритания
Студия: Altitude Film Entertainment, Egoli Tossell Film AG
Продолжительность: 01:37:26
Перевод: Дублированый | R5
Перевод: Авторский одноголосый | Д. Пучков aka Гоблин
Субтитры: русские | Cinema Prestige
Субтитры: русские | Д. Пучков aka Гоблин
Навигация по главам: есть
Информация о файле:
Качество: BDRip - HEVC 1080p Rip by DD2D3
Формат: MKV
Видео: V_MPEGH/ISO/HEVC; 1920x816 (2.35:1); 2716 Kbps; 60 fps; 0,029 bpp
Аудио: русский; AC3; 384 Kbps; CBR; 6 ch ||
Аудио: русский; AC3; 384 Kbps; CBR; 6 ch ||
Доп. информация: нет

Общее
Уникальный идентификатор : 246745098386147173571063290669081751738 (0xB9A1609ABF764CA5ACA3B164C962F0BA)
Полное имя : E:\Filth (2013) BDRip - HEVC 1080p 10 bit 60 FPS.mkv
Формат : Matroska
Версия формата : Version 2
Размер файла : 2,42 Гбайт
Продолжительность : 1 ч. 37 м.
Общий поток : 3 555 Кбит/сек
Название фильма : Rip by from DD2D3
Дата кодирования : UTC 2022-09-22 09:30:26
Программа кодирования : mkvmerge v7.8.0 ('River Man') 32bit built on Apr 3 2015 12:11:22
Библиотека кодирования : libebml v1.3.1 + libmatroska v1.4.2
Attachments : poster

Видео
Идентификатор : 1
Формат : HEVC
Формат/Информация : High Efficiency Video Coding
Профиль формата : Main [email protected]@Main
Идентификатор кодека : V_MPEGH/ISO/HEVC
Продолжительность : 1 ч. 37 м.
Битрейт : 2 716 Кбит/сек
Ширина : 1 920 пикселей
Высота : 816 пикселей
Соотношение сторон : 2,35:1
Режим частоты кадров : Постоянный
Частота кадров : 60,000 кадров/сек
Цветовое пространство : YUV
Субдискретизация насыщенности : 4:2:0
Битовая глубина : 10 бит
Бит/(Пиксели*Кадры) : 0.029
Размер потока : 1,85 Гбайт (76%)
Библиотека кодирования : x265 3.5+20-17839cc0d:[Windows][GCC 11.2.0][64 bit] 10bit
Настройки программы : cpuid=1111039 / frame-threads=2 / numa-pools=4 / wpp / no-pmode / no-pme / no-psnr / no-ssim / log-level=2 / input-csp=1 / input-res=1920x816 / interlace=0 / total-frames=350766 / level-idc=41 / high-tier=1 / uhd-bd=0 / ref=5 / no-allow-non-conformance / no-repeat-headers / annexb / no-aud / no-eob / no-eos / no-hrd / info / hash=0 / no-temporal-layers / open-gop / min-keyint=5 / keyint=240 / gop-lookahead=0 / bframes=4 / b-adapt=2 / b-pyramid / bframe-bias=0 / rc-lookahead=20 / lookahead-slices=5 / scenecut=40 / no-hist-scenecut / radl=0 / no-splice / no-intra-refresh / ctu=64 / min-cu-size=8 / no-rect / no-amp / max-tu-size=8 / tu-inter-depth=1 / tu-intra-depth=1 / limit-tu=0 / rdoq-level=0 / dynamic-rd=0.00 / no-ssim-rd / signhide / no-tskip / nr-intra=0 / nr-inter=0 / no-constrained-intra / strong-intra-smoothing / max-merge=3 / limit-refs=1 / no-limit-modes / me=1 / subme=5 / merange=57 / temporal-mvp / no-frame-dup / no-hme / weightp / no-weightb / no-analyze-src-pics / deblock=0:0 / sao / no-sao-non-deblock / rd=3 / selective-sao=4 / early-skip / rskip / no-fast-intra / no-tskip-fast / no-cu-lossless / b-intra / no-splitrd-skip / rdpenalty=0 / psy-rd=2.00 / psy-rdoq=0.00 / no-rd-refine / no-lossless / cbqpoffs=-2 / crqpoffs=-2 / rc=abr / bitrate=2800 / qcomp=0.70 / qpstep=4 / stats-write=0 / stats-read=0 / ipratio=1.38 / pbratio=1.28 / aq-mode=2 / aq-strength=1.00 / cutree / zone-count=0 / no-strict-cbr / qg-size=32 / no-rc-grain / qpmax=69 / qpmin=0 / no-const-vbv / sar=1 / overscan=0 / videoformat=5 / range=0 / colorprim=1 / transfer=1 / colormatrix=1 / chromaloc=0 / display-window=0 / cll=0,0 / min-luma=0 / max-luma=1023 / log2-max-poc-lsb=8 / vui-timing-info / vui-hrd-info / slices=1 / no-opt-qp-pps / no-opt-ref-list-length-pps / no-multi-pass-opt-rps / scenecut-bias=0.05 / hist-threshold=0.03 / no-opt-cu-delta-qp / no-aq-motion / no-hdr10 / no-hdr10-opt / no-dhdr10-opt / no-idr-recovery-sei / analysis-reuse-level=0 / analysis-save-reuse-level=0 / analysis-load-reuse-level=0 / scale-factor=0 / refine-intra=0 / refine-inter=0 / refine-mv=1 / refine-ctu-distortion=0 / no-limit-sao / ctu-info=0 / no-lowpass-dct / refine-analysis-type=0 / copy-pic=1 / max-ausize-factor=1.0 / no-dynamic-refine / no-single-sei / no-hevc-aq / no-svt / no-field / qp-adaptation-range=1.00 / scenecut-aware-qp=0conformance-window-offsets / right=0 / bottom=0 / decoder-max-rate=0 / no-vbv-live-multi-pass
Default : Да
Forced : Нет
Цветовой диапазон : Limited
Основные цвета : BT.709
Характеристики трансфера : BT.709
Коэффициенты матрицы : BT.709

Аудио #1
Идентификатор : 2
Формат : AC-3
Формат/Информация : Audio Coding 3
Коммерческое название : Dolby Digital
Идентификатор кодека : A_AC3
Продолжительность : 1 ч. 37 м.
Вид битрейта : Постоянный
Битрейт : 384 Кбит/сек
Каналы : 6 каналов
Channel layout : L R C LFE Ls Rs
Частота : 48,0 КГц
Частота кадров : 31,250 кадров/сек (1536 SPF)
Метод сжатия : С потерями
Размер потока : 268 Мбайт (11%)
Заголовок : DUB (R5)
Язык : Russian
Service kind : Complete Main
Default : Да
Forced : Нет
Statistics Tags Issue : mkvmerge v64.0.0 ('Willows') 64-bit 2022-01-30 08:08:57 / mkvmerge v7.8.0 ('River Man') 32bit built on Apr 3 2015 12:11:22 2022-09-22 09:30:26
FromStats_BitRate : 384000
FromStats_Duration : 01:37:26.240000000
FromStats_FrameCount : 182695
FromStats_StreamSize : 280619520

Аудио #2
Идентификатор : 3
Формат : AC-3
Формат/Информация : Audio Coding 3
Коммерческое название : Dolby Digital
Идентификатор кодека : A_AC3
Продолжительность : 1 ч. 37 м.
Вид битрейта : Постоянный
Битрейт : 384 Кбит/сек
Каналы : 6 каналов
Channel layout : L R C LFE Ls Rs
Частота : 48,0 КГц
Частота кадров : 31,250 кадров/сек (1536 SPF)
Метод сжатия : С потерями
Размер потока : 268 Мбайт (11%)
Заголовок : AVO (Дмитрий Пучков)
Язык : Russian
Service kind : Complete Main
Default : Нет
Forced : Нет
Statistics Tags Issue : mkvmerge v64.0.0 ('Willows') 64-bit 2022-01-30 08:08:57 / mkvmerge v7.8.0 ('River Man') 32bit built on Apr 3 2015 12:11:22 2022-09-22 09:30:26
FromStats_BitRate : 384000
FromStats_Duration : 01:37:26.240000000
FromStats_FrameCount : 182695
FromStats_StreamSize : 280619520

Текст #1
Идентификатор : 4
Формат : UTF-8
Идентификатор кодека : S_TEXT/UTF8
Идентификатор кодека/Информация : UTF-8 Plain Text
Заголовок : Cinema Prestige
Язык : Russian
Default : Нет
Forced : Нет
Statistics Tags Issue : mkvmerge v64.0.0 ('Willows') 64-bit 2022-01-30 08:08:57 / mkvmerge v7.8.0 ('River Man') 32bit built on Apr 3 2015 12:11:22 2022-09-22 09:30:26
FromStats_BitRate : 115
FromStats_Duration : 01:31:12.564000000
FromStats_FrameCount : 1233
FromStats_StreamSize : 79336

Текст #2
Идентификатор : 5
Формат : UTF-8
Идентификатор кодека : S_TEXT/UTF8
Идентификатор кодека/Информация : UTF-8 Plain Text
Заголовок : Д. Пучков aka Гоблин
Язык : Russian
Default : Нет
Forced : Нет
Statistics Tags Issue : mkvmerge v64.0.0 ('Willows') 64-bit 2022-01-30 08:08:57 / mkvmerge v7.8.0 ('River Man') 32bit built on Apr 3 2015 12:11:22 2022-09-22 09:30:26
FromStats_BitRate : 111
FromStats_Duration : 01:30:57.433000000
FromStats_FrameCount : 1182
FromStats_StreamSize : 76006

Меню
00:00:00.000 : :Chapter 01
00:08:15.203 : :Chapter 02
00:13:53.958 : :Chapter 03
00:18:24.895 : :Chapter 04
00:25:30.362 : :Chapter 05
00:30:07.639 : :Chapter 06
00:37:12.647 : :Chapter 07
00:42:19.370 : :Chapter 08
00:49:01.772 : :Chapter 09
00:56:11.576 : :Chapter 10
01:01:04.243 : :Chapter 11
01:06:10.049 : :Chapter 12
01:11:58.605 : :Chapter 13
01:17:55.921 : :Chapter 14
01:23:55.405 : :Chapter 15
01:31:56.552 : :Chapter 16




Скачать Грязь через торрент https://a.radikal.host/2022/09/22/Filth-2013-BDRip---HEVC-1080p-10-bit-60-FPS.jpg Скачать, смотреть онлайн Грязь бесплантно в хорошем качестве Описание: Главный герой — Брюс Робертсон, детектив-сержант сыскной полиции города Эдинбурга, стремящийся получить вакантную должность ... 10 10 3
Торрент: Зарегистрирован [2022-09-22 10:20] · скачан: 31 раз
Статус: не проверено
Размер: 2.42 GB
Как cкачать? Как скачать Грязь через торрент | UTorrent

% Раздел Тема Автор DL S | L
Фильмы [HD 720p, 1080p] (Хороший звук DUB, MVO) [ 4.2 GB ] Грязь / Filth | AVO | 1080p killermax2013 Скачать
1 | 0
Фильмы [HD 720p, 1080p] (Хороший звук DUB, MVO) [ 10.08 GB ] Грязь / Filth | DUB | 1080p msltel Скачать
1 | 0
Фильмы (Blu-ray, BD-Remux, HDDVD) [ 25.14 GB ] Грязь / Filth | Дубляж | BD Remux 1080p Messa-fan Скачать
2 | 0
Фильмы [HD 720p, 1080p] (Хороший звук DUB, MVO) [ 5.04 GB ] Грязь / Filth | DUB | 720p msltel Скачать
1 | 0
Фильмы 2013 [DVDrip, WEB-DLRip, HDrip] [ 1.58 GB ] Грязь / Filth | | DVDRip-AVC, [VO 1mpulse2k20 Скачать
2 | 1
Фильмы 2013 [DVDrip, WEB-DLRip, HDrip] [ 1.35 GB ] Грязь / Filth | Лицензия | BDRip,Профессиональный (Дубляж - Лицензия Ворон Скачать
2 | 0
Фильмы 2013 [DVDrip, WEB-DLRip, HDrip] [ 1.37 GB ] Грязь / Filth | Лицензия | DVDRip VintMosina Скачать
1 | 0

28-11-2019 20:33  

Отключить вcю реклaмy на сайте

    Дорогой пользователь! Огромная просьба, поблагодарите релизера, оцените раздачу и оставьте свои комментарий, если Вы скачали Грязь через торрент бесплатно!!
    Комментировать посты могут только пользователи прошедшие не сложную регистрацию
    Показать сообщения:    


    Грязь через торрент
    Скачать бесплатно Грязь
    Грязь скачать торрент
    Грязь смотреть онлайн
    Cкачать фильм Грязь бесплатно
    Грязь скачать торрент в хорошем качестве
    Грязь смотреть онлайн бесплатно в хорошем качестве
    Вы не можете начинать темы
    Вы не можете отвечать на сообщения
    Вы не можете редактировать свои сообщения
    Вы не можете удалять свои сообщения
    Вы не можете голосовать в опросах
    Вы не можете прикреплять файлы к сообщениям
    Вы можете скачивать файлы